Обработка за 0сек. · dwnld.net.ua - DoWNLoaD.net.ua · Обратная связь · Рекомендую:
(Cool, Hard Bop) Shelly Manne & Bill Russo - Deep People - 1952, FLAC (image+.cue), lossless :: dwnld.net.ua

(Cool, Hard Bop) Shelly Manne & Bill Russo - Deep People - 1952, FLAC (image+.cue), lossless

Страницы:  1

Модераторы 

Ответить
Статистика раздачи
Размер:  110 MB   |   Зарегистрирован:  2 года 2 месяца   |   .torrent скачан:  177 раз
Сиды:  1  [  0 KB/s  ]   Подробная статистика пиров
  Мои сообщения  |  Опции показа
Автор
Сообщение

fiks22

Top Seed *******

Стаж: 6 лет 5 месяцев

Сообщений: 5005

Откуда: Санкт-Петербург

flag

04-Фев-12 21:29 (2 года 2 месяца назад, ред. 06-Мар-12 16:42)

 

Shelly Manne & Bill Russo - Deep People
Жанр: Cool, Hard Bop
Страна-производитель диска: Япония
Год издания диска: 1992
Издатель (лейбл): Savoy Jazz
Номер по каталогу: SV-0186
Страна: США
Аудиокодек: FLAC (*.flac)
Тип рипа: image+.cue
Битрейт аудио: lossless
Продолжительность: 40:35
Источник (релизер): Mazeppa (hqshare)
Наличие сканов в содержимом раздачи: да
Треклист:
01. The Princess of Evil (Manne) - 3:19
02. Slightly Brightly (Wallen) - 2:38
03. Deep People (Manne) - 3:04
04. The Count on Rush Street (Russo) - 3:10
05. Pooch McGooch (Gillespie) - 2:42
06. All of Me (Simons-Marks) - 2:26
07. It Don't Mean a Thing (If It Ain't Got That Swing) (Russo) - 2:22
08. An Esthete on Clarke St. (Wallen) - 2:59
09. Cathy (Manne) - 2:44
10. Cookie (Russo) - 2:42
11. Sposin' (Manne) - 2:21
12. Ennul (Manne) - 3:39
13. Gloomy Sunday (Russo) - 3:22
14. Vignette (Manne) - 3:08

Состав

#1-3,7:
Conte Candoli, Shorty Rogers - trumpets
Jimmy Giuffre - tenor saxophone
Bob Gordon - baritone saxophone
Frank Patchen - piano
Joe Mondragon - bass
Shelly Manne - drums, vocals
Recorded on January 7, 1952.
#4-6:
Conte Candoli - trumpet
Bill Russo - trombone
Art Pepper - alto saxophone
Bob Cooper - tenor saxophone
Gene Esposito - piano
Don Bagley - bass
Shelly Manne - drums, vocals
Recorded on November 12, 1951.
#8-14:
The Bill Russo Orchestra:
Gail Brockman - trumpet
Bill Russo - trombone
Chris Leuba, Ralph Macciochi, Leon Mendelsohn, Ralph Metzer - French horns
Clyde Bachand - tuba
Don Carone - alto saxophone
Kenny Mann - tenor saxophone
Don Hanby - baritone saxophone
Martin Lerner, Larry Molinelli - flutes
Robert Meyer - oboe
Walter Simpson - bassoon
Lloyd Lofton - piano
Robert Lesher - guitar
Max Wayne - bass
Dominic Simonetta - drums
Shelby Davis - vocals
Recorded on August 15, 1951.

Лог создания рипа

Exact Audio Copy V0.99 prebeta 4 from 23. January 2008
EAC extraction logfile from 16. July 2008, 20:28
Shelly Manne, Bill Russo / Deep People
Used drive : ATAPI DVD A DH20A3H Adapter: 1 ID: 1
Read mode : Secure
Utilize accurate stream : Yes
Defeat audio cache : Yes
Make use of C2 pointers : No
Read offset correction : 6
Overread into Lead-In and Lead-Out : No
Fill up missing offset samples with silence : Yes
Delete leading and trailing silent blocks : No
Null samples used in CRC calculations : Yes
Used interface : Installed external ASPI interface
Used output format : User Defined Encoder
Selected bitrate : 768 kBit/s
Quality : High
Add ID3 tag : No
Command line compressor : C:\Program Files\Exact Audio Copy\flac.exe
Additional command line options : -V -8 -T "artist=%a" -T "title=%t" -T "album=%g" -T "date=%y" -T "tracknumber=%n" -T "genre=%m" %s
TOC of the extracted CD
Track | Start | Length | Start sector | End sector
---------------------------------------------------------
1 | 0:00.00 | 3:19.20 | 0 | 14944
2 | 3:19.20 | 2:38.13 | 14945 | 26807
3 | 5:57.33 | 3:03.60 | 26808 | 40592
4 | 9:01.18 | 3:09.72 | 40593 | 54839
5 | 12:11.15 | 2:42.03 | 54840 | 66992
6 | 14:53.18 | 2:26.05 | 66993 | 77947
7 | 17:19.23 | 2:22.37 | 77948 | 88634
8 | 19:41.60 | 2:58.40 | 88635 | 102024
9 | 22:40.25 | 2:43.70 | 102025 | 114319
10 | 25:24.20 | 2:41.45 | 114320 | 126439
11 | 28:05.65 | 2:20.63 | 126440 | 137002
12 | 30:26.53 | 3:39.07 | 137003 | 153434
13 | 34:05.60 | 3:22.23 | 153435 | 168607
14 | 37:28.08 | 3:07.50 | 168608 | 182682
Range status and errors
Selected range
Filename D:\WinRar\Shelley Manne - Deep People (1951-52 Savoy)[FLAC Full Scans]\Shelly Manne, Bill Russo - Deep People.wav
Peak level 100.0 %
Range quality 100.0 %
Test CRC 17855F54
Copy CRC 17855F54
Copy OK
No errors occurred
AccurateRip summary
Track 1 accurately ripped (confidence 2) [2EA84158]
Track 2 not present in database
Track 3 not present in database
Track 4 not present in database
Track 5 not present in database
Track 6 not present in database
Track 7 not present in database
Track 8 not present in database
Track 9 not present in database
Track 10 not present in database
Track 11 not present in database
Track 12 not present in database
Track 13 not present in database
Track 14 not present in database
1 track(s) accurately ripped
13 track(s) not present in the AccurateRip database
Some tracks could not be verified as accurate
End of status report

Содержание индексной карты (.CUE)

REM GENRE Jazz
REM DATE 1952
REM DISCID B109830E
REM COMMENT "ExactAudioCopy v0.99pb4"
PERFORMER "Shelly Manne & Bill Russo"
TITLE "Deep People"
FILE "Shelly Manne, Bill Russo - Deep People.wav" WAVE
TRACK 01 AUDIO
TITLE "The Princess of Evil"
PERFORMER "Shelly Manne & Bill Russo"
INDEX 01 00:00:00
TRACK 02 AUDIO
TITLE "Slightly Brightly"
PERFORMER "Shelly Manne & Bill Russo"
INDEX 00 03:17:03
INDEX 01 03:19:20
TRACK 03 AUDIO
TITLE "Deep People"
PERFORMER "Shelly Manne & Bill Russo"
INDEX 00 05:55:18
INDEX 01 05:57:33
TRACK 04 AUDIO
TITLE "The Count on Rush Street"
PERFORMER "Shelly Manne & Bill Russo"
INDEX 00 08:58:08
INDEX 01 09:01:18
TRACK 05 AUDIO
TITLE "Pooch McGooch"
PERFORMER "Shelly Manne & Bill Russo"
INDEX 00 12:09:45
INDEX 01 12:11:15
TRACK 06 AUDIO
TITLE "All of Me"
PERFORMER "Shelly Manne & Bill Russo"
INDEX 00 14:51:15
INDEX 01 14:53:18
TRACK 07 AUDIO
TITLE "It Don't Mean a Thing (If It Ain't Got That Swing)"
PERFORMER "Shelly Manne & Bill Russo"
INDEX 00 17:17:38
INDEX 01 17:19:23
TRACK 08 AUDIO
TITLE "An Esthete on Clarke St."
PERFORMER "Shelly Manne & Bill Russo"
INDEX 00 19:38:48
INDEX 01 19:41:60
TRACK 09 AUDIO
TITLE "Cathy"
PERFORMER "Shelly Manne & Bill Russo"
INDEX 00 22:38:03
INDEX 01 22:40:25
TRACK 10 AUDIO
TITLE "Cookie"
PERFORMER "Shelly Manne & Bill Russo"
INDEX 00 25:21:38
INDEX 01 25:24:20
TRACK 11 AUDIO
TITLE "Sposin'"
PERFORMER "Shelly Manne & Bill Russo"
INDEX 00 28:03:65
INDEX 01 28:05:65
TRACK 12 AUDIO
TITLE "Ennul"
PERFORMER "Shelly Manne & Bill Russo"
INDEX 00 30:24:15
INDEX 01 30:26:53
TRACK 13 AUDIO
TITLE "Gloomy Sunday"
PERFORMER "Shelly Manne & Bill Russo"
INDEX 00 34:03:50
INDEX 01 34:05:60
TRACK 14 AUDIO
TITLE "Vignette"
PERFORMER "Shelly Manne & Bill Russo"
INDEX 00 37:25:45
INDEX 01 37:28:08
Взамен ушедшей в архив.
Торрент: Зарегистрирован  [ 04-Фев-12 21:29 ] · EFF7537B733076247E1664AF569CDE1917582762

Скачать .torrent

18 KB

Статус: проверено
.torrent скачан: 177 раз
Размер: 110 MB

Уважайте релизера и юзеров - оставайтесь на раздаче как можно дольше!
[Профиль]   
 
Ответить
Loading...
Error